<?xml version="1.0" standalone="no"?>
<!DOCTYPE svg PUBLIC "-//W3C//DTD SVG 1.1//EN" "http://www.w3.org/Graphics/SVG/1.1/DTD/svg11.dtd" >
<svg xmlns="http://www.w3.org/2000/svg">
<metadata>
<json>
<![CDATA[
{
	"fontFamily": "vk-icon",
	"majorVersion": 2,
	"minorVersion": 0,
	"version": "Version 2.0",
	"fontId": "vk-icon",
	"psName": "vk-icon",
	"subFamily": "Regular",
	"fullName": "vk-icon",
	"description": "Font generated by IcoMoon."
}
]]>
</json>
</metadata>
<defs>
<font id="vk-icon" horiz-adv-x="1024">
<font-face units-per-em="1024" ascent="960" descent="-64" />
<missing-glyph horiz-adv-x="1024" />
<glyph unicode="&#x20;" horiz-adv-x="512" d="" />
<glyph unicode="&#xe900;" glyph-name="funnel" data-tags="funnel" d="M1003.392 789.163l-0.384-0.427-333.483-356.096v-273.067c0-0.093 0.001-0.204 0.001-0.315 0-27.234-13.822-51.24-34.834-65.384l-0.281-0.178-157.568-105.088c-12.277-8.287-27.407-13.229-43.691-13.229-43.499 0-78.763 35.263-78.763 78.763 0 0.046 0 0.092 0 0.137v-0.007 378.155l-333.909 356.736c-12.616 13.913-20.338 32.466-20.338 52.822 0 43.405 35.11 78.609 78.478 78.762h866.618c43.438-0.081 78.621-35.313 78.621-78.763 0-20.356-7.722-38.909-20.397-52.888l0.059 0.066z" />
<glyph unicode="&#xe901;" glyph-name="hamburger" data-tags="list(1)" d="M1024 448c0-23.564-19.103-42.667-42.667-42.667v0h-938.667c-23.564 0-42.667 19.103-42.667 42.667s19.103 42.667 42.667 42.667v0h938.667c23.564 0 42.667-19.103 42.667-42.667v0zM42.667 746.667h938.667c23.564 0 42.667 19.103 42.667 42.667s-19.103 42.667-42.667 42.667v0h-938.667c-23.564 0-42.667-19.103-42.667-42.667s19.103-42.667 42.667-42.667v0zM981.333 149.333h-938.667c-23.564 0-42.667-19.103-42.667-42.667s19.103-42.667 42.667-42.667v0h938.667c23.564 0 42.667 19.103 42.667 42.667s-19.103 42.667-42.667 42.667v0z" />
<glyph unicode="&#xe902;" glyph-name="bell" data-tags="bell" d="M973.781 212.053c-43.247 96.092-68.442 208.301-68.442 326.395 0 9.754 0.172 19.469 0.513 29.14l-0.039-1.401c0.014 1.219 0.021 2.658 0.021 4.099 0 217.521-176.335 393.856-393.856 393.856s-393.856-176.335-393.856-393.856c0-1.441 0.008-2.881 0.023-4.319l-0.002 0.22c0.302-8.265 0.473-17.974 0.473-27.723 0-118.104-25.211-230.319-70.544-331.559l2.060 5.148c-6.741-11.368-10.726-25.059-10.726-39.68 0-43.49 35.248-78.748 78.735-78.763h200.919c19.027-90.464 98.165-157.406 192.939-157.406s173.912 66.942 192.712 156.121l0.227 1.284h200.875c43.47 0.039 78.694 35.288 78.694 78.763 0 14.621-3.984 28.312-10.926 40.046l0.2-0.366zM512 14.763c-51.122 0.012-94.654 32.492-111.1 77.94l-0.26 0.823h222.72c-16.706-46.271-60.238-78.751-111.359-78.763h-0.001zM118.144 172.288c37.888 65.365 78.763 216.235 78.763 393.899 0 174.021 141.072 315.093 315.093 315.093s315.093-141.072 315.093-315.093v0c0-177.493 40.747-328.533 78.763-393.856z" />
<glyph unicode="&#xe903;" glyph-name="calendar" data-tags="calendar" d="M905.856 881.237h-118.144v39.381c0 21.75-17.632 39.381-39.381 39.381s-39.381-17.632-39.381-39.381v0-39.381h-393.856v39.381c0 21.75-17.632 39.381-39.381 39.381s-39.381-17.632-39.381-39.381v0-39.381h-118.187c-43.499 0-78.763-35.263-78.763-78.763v0-787.712c0-43.499 35.263-78.763 78.763-78.763v0h787.712c43.499 0 78.763 35.263 78.763 78.763v0 787.712c0 43.499-35.263 78.763-78.763 78.763v0zM236.331 802.475v-39.381c0-21.75 17.632-39.381 39.381-39.381s39.381 17.632 39.381 39.381v0 39.381h393.856v-39.381c0-21.75 17.632-39.381 39.381-39.381s39.381 17.632 39.381 39.381v0 39.381h118.144v-157.568h-787.712v157.568zM905.856 14.763h-787.712v551.381h787.712zM433.237 448v-315.093c0-21.75-17.632-39.381-39.381-39.381s-39.381 17.632-39.381 39.381v0 251.392l-21.76-10.923c-5.429-2.999-11.901-4.764-18.786-4.764-21.773 0-39.424 17.651-39.424 39.424 0 15.804 9.3 29.437 22.725 35.723l0.242 0.102 78.763 39.381c5.133 2.624 11.198 4.162 17.621 4.162 21.75 0 39.381-17.632 39.381-39.381 0-0.008 0-0.017 0-0.025v0.001zM724.48 298.112l-94.336-125.781h78.763c21.75 0 39.381-17.632 39.381-39.381s-17.632-39.381-39.381-39.381v0h-157.525c-21.745 0.006-39.371 17.635-39.371 39.381 0 8.914 2.962 17.136 7.954 23.736l-0.072-0.099 141.696 188.885c4.868 6.479 7.796 14.659 7.796 23.522 0 21.75-17.632 39.381-39.381 39.381-14.392 0-26.981-7.72-33.851-19.245l-0.1-0.181c-6.939-11.869-19.62-19.715-34.133-19.715-21.763 0-39.406 17.643-39.406 39.406 0 7.249 1.958 14.042 5.373 19.877l-0.101-0.186c20.808 35.562 58.816 59.070 102.315 59.070 65.249 0 118.144-52.895 118.144-118.144 0-0.007 0-0.014 0-0.021v0.001c0.001-0.144 0.001-0.314 0.001-0.485 0-26.684-8.934-51.282-23.974-70.966l0.207 0.283z" />
<glyph unicode="&#xe904;" glyph-name="caret-down" data-tags="caret-down" d="M1010.347 647.808l-465.451-465.451c-8.426-8.438-20.073-13.657-32.939-13.657s-24.513 5.22-32.938 13.657l-465.409 465.452c-8.43 8.43-13.644 20.075-13.644 32.939 0 25.727 20.856 46.582 46.582 46.582 12.863 0 24.509-5.214 32.939-13.644v0l432.512-432.597 432.469 432.597c8.43 8.43 20.075 13.644 32.939 13.644 25.727 0 46.582-20.856 46.582-46.582 0-12.863-5.214-24.509-13.644-32.939v0z" />
<glyph unicode="&#xe905;" glyph-name="caret-left" data-tags="caret-left" d="M777.643 15.531c8.43-8.43 13.644-20.075 13.644-32.939 0-25.727-20.856-46.582-46.582-46.582-12.863 0-24.509 5.214-32.939 13.644v0l-465.408 465.451c-8.438 8.426-13.657 20.073-13.657 32.939s5.22 24.513 13.657 32.938l465.409 465.409c8.43 8.43 20.075 13.644 32.939 13.644 25.727 0 46.582-20.856 46.582-46.582 0-12.863-5.214-24.509-13.644-32.939v0l-432.555-432.512z" />
<glyph unicode="&#xe906;" glyph-name="caret-right" data-tags="caret-right" d="M777.685 415.104l-465.451-465.451c-8.43-8.43-20.075-13.644-32.939-13.644-25.727 0-46.582 20.856-46.582 46.582 0 12.863 5.214 24.509 13.644 32.939v0l432.597 432.469-432.597 432.512c-8.43 8.43-13.644 20.075-13.644 32.939 0 25.727 20.856 46.582 46.582 46.582 12.863 0 24.509-5.214 32.939-13.644v0l465.451-465.451c8.438-8.426 13.657-20.073 13.657-32.939s-5.22-24.513-13.657-32.938l-0.001-0.001z" />
<glyph unicode="&#xe907;" glyph-name="caret-up" data-tags="caret-up" d="M1010.347 182.315c-8.426-8.438-20.073-13.657-32.939-13.657s-24.513 5.22-32.938 13.657l-432.513 432.556-432.469-432.555c-8.43-8.43-20.075-13.644-32.939-13.644-25.727 0-46.582 20.856-46.582 46.582 0 12.863 5.214 24.509 13.644 32.939v0l465.451 465.408c8.426 8.438 20.073 13.657 32.939 13.657s24.513-5.22 32.938-13.657l465.409-465.409c8.438-8.426 13.657-20.073 13.657-32.939s-5.22-24.513-13.657-32.938l-0.001-0.001z" />
<glyph unicode="&#xe908;" glyph-name="download-simple" data-tags="download-simple" d="M1024 320v-298.667c0-47.128-38.205-85.333-85.333-85.333v0h-853.333c-47.128 0-85.333 38.205-85.333 85.333v0 298.667c0 23.564 19.103 42.667 42.667 42.667s42.667-19.103 42.667-42.667v0-298.667h853.333v298.667c0 23.564 19.103 42.667 42.667 42.667s42.667-19.103 42.667-42.667v0zM481.792 289.792c7.723-7.731 18.396-12.514 30.187-12.514s22.464 4.782 30.186 12.513v0l213.333 213.333c7.725 7.725 12.504 18.398 12.504 30.187 0 23.577-19.113 42.69-42.69 42.69-11.789 0-22.461-4.778-30.187-12.504l-140.459-140.501v494.336c0 23.564-19.103 42.667-42.667 42.667s-42.667-19.103-42.667-42.667v0-494.336l-140.459 140.544c-7.725 7.725-18.398 12.504-30.187 12.504-23.577 0-42.69-19.113-42.69-42.69 0-11.789 4.778-22.461 12.504-30.187v0z" />
<glyph unicode="&#xe909;" glyph-name="envelope" data-tags="envelope" d="M984.619 841.899h-945.237c-21.75 0-39.381-17.632-39.381-39.381v0-669.568c0-43.499 35.263-78.763 78.763-78.763v0h866.475c43.499 0 78.763 35.263 78.763 78.763v0 669.525c0 0.013 0 0.028 0 0.043 0 21.75-17.632 39.381-39.381 39.381v0zM512 422.699l-371.2 340.437h742.571zM367.787 448.043l-289.024-264.917v529.835zM426.069 394.624l59.093-54.571c6.985-6.425 16.345-10.363 26.624-10.363s19.639 3.938 26.652 10.389l-0.028-0.026 59.093 54.4 285.525-261.675h-742.357zM656.171 448.043l289.024 264.96v-529.92z" />
<glyph unicode="&#xe90a;" glyph-name="eye" data-tags="eye" d="M1021.056 461.824c-31.406 63.258-70.86 117.377-117.909 163.82l-0.064 0.063c-99.647 101.041-238.055 163.632-391.083 163.632s-291.436-62.591-391.021-163.569l-0.062-0.063c-47.152-46.483-86.612-100.608-116.401-160.396l-1.572-3.487c-1.86-4.079-2.944-8.846-2.944-13.867s1.084-9.788 3.031-14.081l-0.087 0.214c31.413-63.24 70.866-117.344 117.908-163.776l0.065-0.064c99.662-101.009 238.065-163.578 391.083-163.578s291.421 62.569 391.023 163.517l0.059 0.060c47.108 46.496 86.56 100.6 116.394 160.346l1.58 3.494c1.86 4.079 2.944 8.846 2.944 13.867s-1.084 9.788-3.031 14.081l0.087-0.214zM512 174.933c-1.373-0.014-2.995-0.023-4.619-0.023-131.845 0-251.004 54.316-336.321 141.792l-0.094 0.097c-38.051 37.846-70.764 81.004-96.948 128.279l-1.484 2.921c27.659 50.199 60.374 93.357 98.405 131.173l0.027 0.027c85.411 87.573 204.57 141.889 336.415 141.889 1.624 0 3.246-0.008 4.866-0.025l-0.247 0.002c1.373 0.014 2.995 0.023 4.619 0.023 131.845 0 251.004-54.316 336.321-141.792l0.094-0.097c38.134-37.844 70.916-81.001 97.162-128.288l1.483-2.912c-30.763-57.429-164.779-273.067-439.68-273.067zM512 652.8c-113.108 0-204.8-91.692-204.8-204.8s91.692-204.8 204.8-204.8c113.108 0 204.8 91.692 204.8 204.8v0c0 113.108-91.692 204.8-204.8 204.8v0zM512 311.467c-75.405 0-136.533 61.128-136.533 136.533s61.128 136.533 136.533 136.533c75.405 0 136.533-61.128 136.533-136.533v0c0-75.405-61.128-136.533-136.533-136.533v0z" />
<glyph unicode="&#xe90b;" glyph-name="file-text" data-tags="file-text" d="M933.717 672.853l-275.669 275.669c-7.125 7.118-16.965 11.52-27.832 11.52-0.010 0-0.020 0-0.031 0h-472.617c-0.013 0-0.028 0-0.043 0-43.499 0-78.763-35.263-78.763-78.763v0-866.475c0-43.499 35.263-78.763 78.763-78.763v0h708.949c43.499 0 78.763 35.263 78.763 78.763v0 630.144c0 0.021 0 0.046 0 0.072 0 10.868-4.402 20.707-11.52 27.833v0zM669.568 825.6l141.227-141.227h-141.227zM866.475 14.933h-708.907v866.347h433.195v-236.288c0-21.75 17.632-39.381 39.381-39.381v0h236.288zM708.949 408.789c0-21.75-17.632-39.381-39.381-39.381v0h-315.093c-21.75 0-39.381 17.632-39.381 39.381s17.632 39.381 39.381 39.381v0h315.093c0 0 0 0 0 0 21.75 0 39.381-17.632 39.381-39.381 0-0.045 0-0.090 0-0.135v0.007zM708.949 251.264c0-21.75-17.632-39.381-39.381-39.381v0h-315.093c-21.75 0-39.381 17.632-39.381 39.381s17.632 39.381 39.381 39.381v0h315.093c0 0 0 0 0 0 21.75 0 39.381-17.632 39.381-39.381 0-0.060 0-0.12 0-0.18v0.009z" />
<glyph unicode="&#xe90c;" glyph-name="x" data-tags="x" d="M1008.981 23.467c9.281-9.281 15.022-22.104 15.022-36.267 0-28.326-22.963-51.289-51.289-51.289-14.163 0-26.985 5.741-36.267 15.022l-424.405 424.491-424.533-424.619c-9.281-9.281-22.104-15.022-36.267-15.022-28.326 0-51.289 22.963-51.289 51.289 0 14.163 5.741 26.985 15.022 36.267l424.533 424.619-424.491 424.619c-9.281 9.281-15.022 22.104-15.022 36.267 0 28.326 22.963 51.289 51.289 51.289 14.163 0 26.985-5.741 36.267-15.022l424.491-424.619 424.533 424.619c9.281 9.281 22.104 15.022 36.267 15.022 28.326 0 51.289-22.963 51.289-51.289 0-14.163-5.741-26.985-15.022-36.267l-424.533-424.619z" />
<glyph unicode="&#xe90d;" glyph-name="users-three" data-tags="users-three" d="M1010.219 387.2c-5.634-4.262-12.757-6.827-20.48-6.827-11.129 0-21.013 5.326-27.244 13.567l-0.062 0.086c-40.565 54.060-104.518 88.663-176.554 88.663-0.285 0-0.57-0.001-0.855-0.002h0.044c-18.851 0-34.133 15.282-34.133 34.133s15.282 34.133 34.133 34.133v0c56.55 0.005 102.391 45.849 102.391 102.4 0 56.554-45.846 102.4-102.4 102.4-47.457 0-87.373-32.283-98.987-76.086l-0.161-0.714c-3.926-14.848-17.239-25.617-33.067-25.617-18.861 0-34.15 15.289-34.15 34.15 0 3.032 0.395 5.973 1.137 8.772l-0.054-0.238c19.619 74.205 86.151 128.019 165.252 128.019 94.257 0 170.667-76.41 170.667-170.667 0-49.776-21.309-94.575-55.303-125.772l-0.125-0.113c47.446-20.871 86.868-52.422 116.502-91.763l0.533-0.739c4.246-5.627 6.801-12.738 6.801-20.446 0-11.174-5.369-21.093-13.668-27.32l-0.088-0.063zM780.373 124.288c3.342-5.184 5.328-11.516 5.328-18.312 0-18.851-15.282-34.133-34.133-34.133-13.067 0-24.419 7.343-30.156 18.127l-0.089 0.184c-43.102 72.023-120.701 119.493-209.387 119.493s-166.284-47.47-208.773-118.387l-0.614-1.105c-5.826-10.969-17.178-18.312-30.245-18.312-18.851 0-34.133 15.282-34.133 34.133 0 6.796 1.986 13.128 5.409 18.447l-0.081-0.135c33.399 56.683 82.808 100.841 141.987 126.885l1.971 0.773c-49.038 37.803-80.32 96.562-80.32 162.628 0 113.108 91.692 204.8 204.8 204.8s204.8-91.692 204.8-204.8c0-66.066-31.282-124.825-79.843-162.274l-0.477-0.354c61.15-26.818 110.558-70.976 143.175-126.226l0.782-1.433zM512 277.888c75.405 0 136.533 61.128 136.533 136.533s-61.128 136.533-136.533 136.533c-75.405 0-136.533-61.128-136.533-136.533v0c0-75.405 61.128-136.533 136.533-136.533v0zM273.067 516.821c0 18.851-15.282 34.133-34.133 34.133v0c-56.55 0.005-102.391 45.849-102.391 102.4 0 56.554 45.846 102.4 102.4 102.4 47.457 0 87.373-32.283 98.987-76.086l0.161-0.714c3.926-14.848 17.239-25.617 33.067-25.617 18.861 0 34.15 15.289 34.15 34.15 0 3.032-0.395 5.973-1.137 8.772l0.054-0.238c-19.619 74.205-86.151 128.019-165.252 128.019-94.257 0-170.667-76.41-170.667-170.667 0-49.776 21.309-94.575 55.303-125.772l0.125-0.113c-47.391-20.878-86.769-52.41-116.373-91.719l-0.533-0.739c-4.27-5.638-6.839-12.77-6.839-20.501 0-18.858 15.288-34.146 34.146-34.146 11.127 0 21.011 5.322 27.245 13.559l0.062 0.086c40.565 54.060 104.518 88.663 176.554 88.663 0.33 0 0.66-0.001 0.99-0.002h-0.051c18.851 0 34.133 15.282 34.133 34.133v0z" />
<glyph unicode="&#xe90e;" glyph-name="sun" data-tags="sun" d="M477.867 823.467v102.4c0 18.851 15.282 34.133 34.133 34.133s34.133-15.282 34.133-34.133v0-102.4c0-18.851-15.282-34.133-34.133-34.133s-34.133 15.282-34.133 34.133v0zM785.067 448c0-150.811-122.256-273.067-273.067-273.067s-273.067 122.256-273.067 273.067c0 150.811 122.256 273.067 273.067 273.067v0c150.811 0 273.067-122.256 273.067-273.067v0zM716.8 448c0 113.108-91.692 204.8-204.8 204.8s-204.8-91.692-204.8-204.8c0-113.108 91.692-204.8 204.8-204.8v0c113.108 0 204.8 91.692 204.8 204.8v0zM214.784 696.917c6.18-6.18 14.718-10.003 24.149-10.003 18.862 0 34.152 15.291 34.152 34.152 0 9.431-3.823 17.969-10.003 24.149v0l-68.267 68.267c-6.18 6.18-14.718 10.003-24.149 10.003-18.862 0-34.152-15.291-34.152-34.152 0-9.431 3.823-17.969 10.003-24.149v0zM214.784 199.083l-68.267-68.267c-6.18-6.18-10.003-14.718-10.003-24.149 0-18.862 15.291-34.152 34.152-34.152 9.431 0 17.969 3.823 24.149 10.003l68.267 68.267c6.18 6.18 10.003 14.718 10.003 24.149 0 18.862-15.291 34.152-34.152 34.152-9.431 0-17.969-3.823-24.149-10.003v0zM785.067 686.933c0.008 0 0.017 0 0.027 0 9.419 0 17.947 3.815 24.123 9.984v0l68.267 68.267c6.18 6.18 10.003 14.718 10.003 24.149 0 18.862-15.291 34.152-34.152 34.152-9.431 0-17.969-3.823-24.149-10.003l-68.267-68.267c-6.185-6.178-10.011-14.717-10.011-24.149 0-18.851 15.282-34.133 34.133-34.133 0.009 0 0.019 0 0.028 0h-0.001zM809.216 199.083c-6.18 6.18-14.718 10.003-24.149 10.003-18.862 0-34.152-15.291-34.152-34.152 0-9.431 3.823-17.969 10.003-24.149l68.267-68.267c6.18-6.18 14.718-10.003 24.149-10.003 18.862 0 34.152 15.291 34.152 34.152 0 9.431-3.823 17.969-10.003 24.149v0zM170.667 448c0 18.851-15.282 34.133-34.133 34.133v0h-102.4c-18.851 0-34.133-15.282-34.133-34.133s15.282-34.133 34.133-34.133h102.4c18.851 0 34.133 15.282 34.133 34.133v0zM512 106.667c-18.851 0-34.133-15.282-34.133-34.133v0-102.4c0-18.851 15.282-34.133 34.133-34.133s34.133 15.282 34.133 34.133v0 102.4c0 18.851-15.282 34.133-34.133 34.133v0zM989.867 482.133h-102.4c-18.851 0-34.133-15.282-34.133-34.133s15.282-34.133 34.133-34.133h102.4c18.851 0 34.133 15.282 34.133 34.133s-15.282 34.133-34.133 34.133v0z" />
<glyph unicode="&#xe90f;" glyph-name="stack" data-tags="stack" d="M982.485 246.869c3.072-5.239 4.886-11.538 4.886-18.26 0-13.428-7.239-25.166-18.027-31.524l-0.171-0.093-438.869-256c-5.28-3.134-11.64-4.986-18.432-4.986s-13.152 1.852-18.602 5.078l0.17-0.093-438.869 256c-10.93 6.461-18.146 18.185-18.146 31.595 0 20.202 16.377 36.578 36.578 36.578 6.792 0 13.152-1.851 18.602-5.076l-0.17 0.093 420.565-245.248 420.565 245.248c5.247 3.083 11.557 4.904 18.292 4.904 13.436 0 25.179-7.247 31.535-18.045l0.093-0.171zM932.608 479.616l-420.565-245.248-420.608 245.248c-4.786 2.461-10.443 3.903-16.437 3.903-20.194 0-36.565-16.371-36.565-36.565 0-12.7 6.475-23.888 16.304-30.443l0.134-0.084 438.869-256c5.28-3.134 11.64-4.986 18.432-4.986s13.152 1.852 18.602 5.078l-0.17-0.093 438.869 256c10.93 6.461 18.146 18.185 18.146 31.595 0 20.202-16.377 36.578-36.578 36.578-6.792 0-13.152-1.851-18.602-5.076l0.17 0.093zM36.608 667.349c0 0.014 0 0.031 0 0.047 0 13.454 7.267 25.211 18.089 31.561l0.172 0.093 438.869 256c5.28 3.134 11.64 4.986 18.432 4.986s13.152-1.852 18.602-5.078l-0.17 0.093 438.869-256c10.937-6.456 18.159-18.182 18.159-31.595s-7.222-25.139-17.989-31.502l-0.17-0.093-438.869-256c-5.28-3.134-11.64-4.986-18.432-4.986s-13.152 1.852-18.602 5.078l0.17-0.093-438.869 256c-11.001 6.427-18.28 18.169-18.304 31.613v0.003zM145.792 667.349l366.251-213.675 366.293 213.803-366.336 213.632z" />
<glyph unicode="&#xe910;" glyph-name="share-fat" data-tags="share-fat" d="M1013.333 492.16l-365.739 365.739c-6.621 6.643-15.78 10.753-25.899 10.753-20.194 0-36.565-16.371-36.565-36.565 0 0 0-0.001 0-0.001v0-184.491c-138.337-17.187-260.807-74.688-358.029-160.21l0.738 0.636c-120.584-97.441-203.751-237.001-227.090-396.008l-0.409-3.395c-0.235-1.909-0.37-4.118-0.37-6.359 0-30.303 24.566-54.869 54.869-54.869 15.806 0 30.052 6.684 40.064 17.379l0.028 0.031c124.807 132.589 295.883 220.395 487.31 237.527l2.93 0.212v-181.888c0 0 0-0.001 0-0.001 0-20.194 16.371-36.565 36.565-36.565 10.119 0 19.277 4.11 25.898 10.752l365.74 365.74c6.566 6.608 10.625 15.716 10.625 25.771 0 10.076-4.076 19.201-10.669 25.814l0.001-0.001zM658.304 189.013v131.029c0 20.194-16.371 36.565-36.565 36.565v0c-136.824-0.574-264.902-37.498-375.232-101.603l3.605 1.934c-63.388-35.966-118.177-76.116-167.802-121.792l0.634 0.576c32.87 120.172 100.453 221.56 191.186 295.677l1.028 0.814c92.17 82.901 212.509 136.118 345.066 143.76l1.515 0.070c20.194 0 36.565 16.371 36.565 36.565v0 131.072l277.333-277.333z" />
<glyph unicode="&#xe911;" glyph-name="paperclip" data-tags="paperclip" d="M933.589 475.989c7.135-7.128 11.549-16.979 11.549-27.861s-4.414-20.733-11.549-27.861l-403.798-403.542c-49.881-49.876-118.789-80.725-194.901-80.725-152.236 0-275.647 123.411-275.647 275.647 0 76.123 30.857 145.039 80.746 194.922v0l488.533 495.701c35.564 35.231 84.519 56.999 138.557 56.999 108.749 0 196.907-88.158 196.907-196.907 0-53.964-21.708-102.858-56.869-138.426l0.018 0.019-488.619-495.701c-21.413-21.413-50.994-34.657-83.669-34.657-65.35 0-118.326 52.976-118.326 118.326 0 32.675 13.244 62.256 34.657 83.669v0l410.027 416.427c7.222 7.846 17.542 12.744 29.006 12.744 21.75 0 39.381-17.632 39.381-39.381 0-11.241-4.71-21.382-12.264-28.558l-0.017-0.016-410.24-416.896c-7.557-7.19-12.257-17.321-12.257-28.551 0-21.75 17.632-39.381 39.381-39.381 11.123 0 21.17 4.612 28.331 12.027l0.011 0.011 488.704 495.445c21.442 21.399 34.707 50.985 34.707 83.669 0 65.283-52.922 118.206-118.206 118.206-32.599 0-62.116-13.196-83.501-34.538l0.002 0.002-488.405-495.531c-35.694-35.64-57.774-84.906-57.774-139.328 0-108.739 88.15-196.889 196.889-196.889 54.316 0 103.495 21.995 139.117 57.563l403.88 403.582c7.113 7.046 16.904 11.4 27.712 11.4 10.914 0 20.791-4.44 27.924-11.612l0.002-0.002z" />
<glyph unicode="&#xe912;" glyph-name="moon" data-tags="moon" d="M1012.309 346.581c-7.268 7.278-17.314 11.781-28.411 11.781-4.188 0-8.227-0.641-12.022-1.831l0.284 0.077c-38.295-12.008-82.33-18.925-127.981-18.925-244.219 0-442.197 197.978-442.197 442.197 0 45.651 6.918 89.686 19.762 131.114l-0.837-3.133c1.174 3.602 1.851 7.747 1.851 12.050 0 22.174-17.975 40.149-40.149 40.149-4.255 0-8.356-0.662-12.205-1.889l0.284 0.078c-216.583-66.93-371.215-265.37-371.215-499.926 0-288.425 233.815-522.24 522.24-522.24 0.275 0 0.55 0 0.825 0.001h-0.042c0.504-0.002 1.1-0.003 1.697-0.003 117.871 0 226.538 39.404 313.548 105.757l-1.261-0.922c86.823 66.136 151.793 156.939 184.761 261.914l1.010 3.729c1.113 3.511 1.754 7.55 1.754 11.738 0 11.055-4.468 21.067-11.697 28.327l0.001-0.001zM788.181 104.917c-73.035-55.447-165.47-88.823-265.701-88.823-244.007 0-441.813 197.807-441.813 441.813 0 100.22 33.369 192.646 89.603 266.774l-0.798-1.097c41.689 54.662 94.424 98.718 155.095 129.346l2.559 1.171c-3.286-22.218-5.163-47.863-5.163-73.948 0-0.223 0-0.445 0-0.668v0.034c0.291-288.186 233.772-521.742 521.902-522.155h0.040c26.44 0.012 52.418 1.95 77.813 5.682l-2.89-0.349c-31.82-63.289-75.921-116.070-129.559-156.986l-1.087-0.795z" />
<glyph unicode="&#xe913;" glyph-name="magnifying-glass" data-tags="magnifying-glass" d="M1012.48 3.157l-246.229 246.016c62.489 74.579 100.442 171.565 100.442 277.414 0 239.318-194.005 433.323-433.323 433.323s-433.323-194.005-433.323-433.323c0-239.318 194.005-433.323 433.323-433.323 105.85 0 202.836 37.953 278.091 100.993l-0.677-0.552 246.187-246.229c7.274-8.68 18.119-14.159 30.245-14.159 21.75 0 39.381 17.632 39.381 39.381 0 12.125-5.48 22.971-14.098 30.195l-0.061 0.050zM79.744 526.123c0 195.582 158.551 354.133 354.133 354.133s354.133-158.551 354.133-354.133c0-195.582-158.551-354.133-354.133-354.133v0c-195.582 0-354.133 158.551-354.133 354.133v0z" />
<glyph unicode="&#xe914;" glyph-name="list-bullets" data-tags="list-bullets" d="M256 789.333c0 23.564 19.103 42.667 42.667 42.667v0h682.667c23.564 0 42.667-19.103 42.667-42.667s-19.103-42.667-42.667-42.667v0h-682.667c-23.564 0-42.667 19.103-42.667 42.667v0zM981.333 490.667h-682.667c-23.564 0-42.667-19.103-42.667-42.667s19.103-42.667 42.667-42.667v0h682.667c23.564 0 42.667 19.103 42.667 42.667s-19.103 42.667-42.667 42.667v0zM981.333 149.333h-682.667c-23.564 0-42.667-19.103-42.667-42.667s19.103-42.667 42.667-42.667v0h682.667c23.564 0 42.667 19.103 42.667 42.667s-19.103 42.667-42.667 42.667v0zM64 853.333c-35.346 0-64-28.654-64-64s28.654-64 64-64c35.346 0 64 28.654 64 64v0c0 35.346-28.654 64-64 64v0zM64 512c-35.346 0-64-28.654-64-64s28.654-64 64-64c35.346 0 64 28.654 64 64v0c0 35.346-28.654 64-64 64v0zM64 170.667c-35.346 0-64-28.654-64-64s28.654-64 64-64c35.346 0 64 28.654 64 64v0c0 35.346-28.654 64-64 64v0z" />
<glyph unicode="&#xe915;" glyph-name="info" data-tags="info" d="M512 960.043c-282.77 0-512-229.23-512-512s229.23-512 512-512c282.77 0 512 229.23 512 512v0c0 282.77-229.23 512-512 512v0zM512 14.805c-239.27 0-433.237 193.967-433.237 433.237s193.967 433.237 433.237 433.237c239.27 0 433.237-193.967 433.237-433.237v0c0-239.27-193.967-433.237-433.237-433.237v0zM590.763 211.712c0-21.75-17.632-39.381-39.381-39.381v0c-43.499 0-78.763 35.263-78.763 78.763v0 196.949c-21.75 0-39.381 17.632-39.381 39.381s17.632 39.381 39.381 39.381v0c43.499 0 78.763-35.263 78.763-78.763v0-196.907c21.75 0 39.381-17.632 39.381-39.381 0-0.015 0-0.030 0-0.045v0.002zM433.237 664.661c0 32.636 26.457 59.093 59.093 59.093s59.093-26.457 59.093-59.093c0-32.636-26.457-59.093-59.093-59.093v0c-32.636 0-59.093 26.457-59.093 59.093v0z" />
<glyph unicode="&#xe916;" glyph-name="parent" data-tags="parent" d="M601.643 433.067c-2.688-0.939-5.504-1.877-8.533-2.816 2.816 1.024 5.504 1.963 8.235 3.029zM459.349 211.243c-50.391 20.135-85.344 68.535-85.344 125.098 0 16.937 3.134 33.143 8.854 48.068l-0.31-0.92 113.877-42.965 2.389-0.597c1.464-0.541 3.156-0.855 4.921-0.855 0.070 0 0.14 0 0.21 0.001h-0.011c0.167-0.023 0.359-0.036 0.555-0.036s0.388 0.013 0.577 0.039l-0.022-0.002c1.486 0.095 2.871 0.323 4.205 0.674l-0.152-0.034 117.76 44.117c2.261 0.939 4.267 1.664 6.229 2.603 3.822-8.934 6.802-19.333 8.444-30.171l0.090-0.72c0.87-5.747 1.368-12.377 1.368-19.124 0-56.616-35.007-105.056-84.557-124.855l-0.906-0.32c46.507-25.899 112.341-77.611 154.88-275.328h-407.936c42.667 197.717 108.373 249.429 154.88 275.328zM681.387 366.208c-0.045-0.528-0.485-0.939-1.020-0.939-0.001 0-0.003 0-0.004 0v0c-4.053 0-23.595-0.299-26.325 0-0.537 3.8-0.843 8.188-0.843 12.649 0 6.087 0.571 12.041 1.662 17.811l-0.093-0.593 5.803 13.611c0.147 0.12 0.316 0.22 0.499 0.294l0.013 0.005c-0.325 0.389-0.523 0.894-0.523 1.446 0 0.077 0.004 0.153 0.011 0.228l-0.001-0.009 0.811 43.349c0 0.009 0 0.019 0 0.029 0 0.589-0.478 1.067-1.067 1.067-0.138 0-0.27-0.026-0.392-0.074l0.007 0.003c-14.123-5.419-35.84-13.525-58.453-21.845-2.688-1.024-5.419-1.963-8.192-3.029-0.096-0.006-0.207-0.010-0.32-0.010s-0.224 0.004-0.335 0.011l0.015-0.001c-7.595-2.603-15.701-5.205-23.723-7.893-26.88-8.96-54.485-18.219-64.896-20.907-15.189 4.267-57.515 18.005-93.867 30.251-8.533 2.603-16.043 5.205-22.357 7.381-1.071 0.416-2.315 0.718-3.609 0.848l-0.061 0.005h-0.299l-48.384 17.067c-3.2 1.152-3.499 3.968-0.64 5.333 47.311 23.78 102.434 44.019 160.041 57.881l5.335 1.084c65.676-14.451 123.106-33.671 177.667-58.144l-5.72 2.294c1.877-0.725 2.603-2.091 2.176-3.243v0l-0.939-51.456c0-0.006 0-0.013 0-0.020 0-0.373-0.112-0.721-0.303-1.010l0.004 0.007 0.64-0.427 6.315-13.824c0.9-6.091 1.414-13.122 1.414-20.272 0-3.075-0.095-6.128-0.282-9.156l0.021 0.415zM639.104 408.619v-0.299c-0.506-5.927-4.561-10.787-10.011-12.474l-0.101-0.027c-1.877-0.811-3.755-1.536-6.656-2.603l-112.683-42.667-2.773-0.64c-0.676-0.22-1.455-0.347-2.263-0.347-0.3 0-0.596 0.018-0.887 0.052l0.035-0.003c-0.771 0.069-1.481 0.22-2.157 0.446l0.066-0.019-115.243 43.093c-7.597 3.232-12.983 10.314-13.732 18.73l-0.006 0.086-0.853 8.533c0.183 3.090 1.82 5.762 4.232 7.359l0.035 0.022c1.459 1.008 3.256 1.625 5.196 1.664h0.010c1.119-0.019 2.187-0.205 3.191-0.534l-0.076 0.022c6.357-2.176 14.080-4.821 22.485-7.509 37.333-12.8 81.323-27.008 95.616-30.763l1.365-0.427 1.237 0.299c9.6 2.389 37.461 11.776 66.901 21.333l35.371 11.776 17.067 5.419c3.925 1.237 9.387 2.176 12.075-0.427 4.651-4.267 3.328-16.427 2.389-20.395zM682.965 708.608c-34.773-19.371-80.597-65.707-118.699-173.696 54.357-17.067 117.675-43.349 118.187-43.52 6.994-2.725 12.645-7.618 16.259-13.842l0.082-0.153 4.267-4.267-0.213-10.624c0-0.469 0-0.896 0-1.365v0l-0.725-35.157v-10.539l3.883-8.533h-0.213c2.975-9.062 4.691-19.492 4.691-30.322 0-5.245-0.402-10.395-1.178-15.423l0.071 0.561-4.907-24.491h-33.365c0.001-0.241 0.002-0.525 0.002-0.81 0-51.14-23.615-96.765-60.535-126.564l-0.31-0.242c46.592-38.869 96.171-110.933 129.92-267.563l1.28-5.888h228.053c0 578.944-119.253 732.544-191.147 772.565 48.813 19.527 82.667 66.423 82.667 121.226 0 71.918-58.301 130.219-130.219 130.219s-130.219-58.301-130.219-130.219c0-54.803 33.854-101.699 81.79-120.916l0.877-0.31zM42.667-64h233.045l1.28 5.888c33.707 156.587 83.243 228.608 129.835 267.52-37.238 29.562-60.906 74.827-60.906 125.62 0 17.767 2.896 34.858 8.242 50.826l-0.328-1.129c-5.023 6.843-8.326 15.238-9.118 24.351l-0.013 0.183-0.853 8.533-0.213 2.304v2.347c0 0.469 0 0.896 0.256 1.365h-0.64l-17.28 6.059c-11.96 4.099-20.551 14.904-21.329 27.817l-0.004 0.087c-0.014 0.343-0.021 0.746-0.021 1.151 0 12.575 7.493 23.4 18.258 28.253l0.195 0.079c27.221 12.331 80.085 35.371 123.477 49.493-37.675 106.667-83.072 152.619-117.589 171.819 48.801 19.533 82.645 66.423 82.645 121.217 0 71.918-58.301 130.219-130.219 130.219s-130.219-58.301-130.219-130.219c0-54.795 33.844-101.685 81.769-120.907l0.877-0.31c-71.893-40.021-191.147-193.579-191.147-772.565z" />
<glyph unicode="&#xe917;" glyph-name="student" data-tags="student" d="M669.653 811.307q-6.827-2.347-14.251-4.779c4.779 1.792 9.344 3.371 13.909 5.12zM428.971 436.181c-85.129 34.158-144.148 115.997-144.148 211.622 0 28.648 5.297 56.059 14.966 81.307l-0.524-1.558 192.512-72.789 4.267-1.067c2.418-0.867 5.209-1.369 8.116-1.369 0.147 0 0.293 0.001 0.439 0.004h-0.022c0.288-0.042 0.621-0.066 0.96-0.066s0.672 0.024 0.997 0.071l-0.037-0.004c2.509 0.145 4.858 0.526 7.118 1.123l-0.249-0.056 199.168 74.581c3.84 1.579 7.381 2.816 10.539 4.267 6.377-15.134 11.301-32.746 13.942-51.096l0.138-1.17c1.464-9.69 2.299-20.872 2.299-32.248 0-95.656-59.092-177.511-142.763-211.050l-1.531-0.542c78.635-43.819 190.037-165.76 261.973-500.224h-690.133c71.979 334.464 183.467 456.533 261.973 500.224zM804.608 698.197c-0.068-0.886-0.804-1.579-1.702-1.579-0.017 0-0.033 0-0.050 0.001h0.002c-6.869 0-39.936-0.555-44.544 0.341-0.926 6.48-1.454 13.963-1.454 21.571 0 10.355 0.98 20.482 2.851 30.292l-0.159-1.004 9.472 22.357s0 0 0 0.341c0.245 0.219 0.526 0.405 0.832 0.546l0.021 0.009c-0.453 0.618-0.725 1.393-0.725 2.232 0 0.010 0 0.020 0 0.031v-0.002l1.408 73.387c0 0.009 0 0.019 0 0.030 0 1.013-0.821 1.835-1.835 1.835-0.23 0-0.45-0.042-0.653-0.12l0.013 0.004c-23.936-9.131-60.715-22.869-98.859-36.949-4.608-1.792-9.173-3.371-13.909-5.077-0.341 0-0.725 0-1.024-0.384-12.8-4.267-26.581-8.789-40.107-13.397-45.312-14.933-92.245-30.592-109.739-35.157-25.6 7.040-97.28 30.464-158.549 51.2-14.037 4.267-27.093 8.789-37.845 12.459-1.797 0.699-3.881 1.197-6.050 1.401l-0.094 0.007h-0.512c-35.541 12.501-66.347 23.253-81.792 28.672-5.461 1.963-6.016 6.699-1.067 9.003 45.397 20.608 225.749 99.755 279.765 99.755 52.779 0 244.053-74.965 290.816-94.464 3.2-1.237 4.267-3.541 3.712-5.461 0 0 0 0 0-0.341l-1.792-86.229c0-0.019 0.001-0.041 0.001-0.063 0-0.629-0.192-1.213-0.519-1.697l0.007 0.011c0.341 0 0.725-0.555 1.024-0.725v0 0l10.752-23.381c1.533-10.312 2.408-22.214 2.408-34.321 0-5.203-0.162-10.367-0.48-15.49l0.035 0.701zM732.971 769.792v-0.555c-0.87-9.991-7.709-18.18-16.896-21.032l-0.171-0.046c-3.157-1.408-6.357-2.645-11.264-4.267l-190.507-72.235-4.779-1.109c-1.14-0.406-2.456-0.641-3.826-0.641-0.501 0-0.995 0.031-1.48 0.092l0.058-0.006c-1.307 0.12-2.51 0.377-3.655 0.758l0.114-0.033-194.944 73.045c-12.842 5.493-21.94 17.484-23.2 31.727l-0.010 0.145-1.408 14.592c0.339 5.26 3.172 9.793 7.318 12.463l0.063 0.038c2.467 1.692 5.499 2.733 8.769 2.816h0.021c1.901-0.040 3.716-0.349 5.427-0.891l-0.137 0.037c10.752-3.712 23.765-8.107 38.016-12.8 63.147-21.333 137.557-45.739 161.707-52.096l2.261-0.725 2.133 0.555c16.213 4.011 63.36 19.883 113.109 36.437 20.779 6.827 41.557 13.739 59.733 19.84 10.581 3.371 20.437 6.528 29.056 9.173 6.656 2.133 15.829 3.669 20.395-0.725 7.936-7.211 5.632-27.819 4.267-34.475z" />
<glyph unicode="&#xe918;" glyph-name="calendar1" data-tags="calendar" d="M905.813 881.237h-118.144v39.381c0 21.75-17.632 39.381-39.381 39.381s-39.381-17.632-39.381-39.381v0-39.381h-393.856v39.381c0 21.75-17.632 39.381-39.381 39.381s-39.381-17.632-39.381-39.381v0-39.381h-118.187c-43.499 0-78.763-35.263-78.763-78.763v0-787.712c0-43.499 35.263-78.763 78.763-78.763v0h787.712c43.499 0 78.763 35.263 78.763 78.763v0 787.712c0 43.499-35.263 78.763-78.763 78.763v0zM236.288 802.475v-39.381c0-21.75 17.632-39.381 39.381-39.381s39.381 17.632 39.381 39.381v0 39.381h393.856v-39.381c0-21.75 17.632-39.381 39.381-39.381s39.381 17.632 39.381 39.381v0 39.381h118.144v-157.568h-787.712v157.568zM905.813 14.763h-787.712v551.381h787.712z" />
<glyph unicode="&#xe919;" glyph-name="school" data-tags="school" d="M68.267 516.267h102.4v-273.067h-68.267c-18.851 0-34.133-15.282-34.133-34.133s15.282-34.133 34.133-34.133h819.2c18.851 0 34.133 15.282 34.133 34.133s-15.282 34.133-34.133 34.133h-68.267v273.067h102.4c18.836 0.020 34.099 15.294 34.099 34.133 0 12.221-6.423 22.943-16.078 28.972l-0.144 0.084-443.733 273.067c-5.086 3.174-11.262 5.056-17.877 5.056s-12.792-1.882-18.022-5.14l0.144 0.084-443.733-273.067c-9.798-6.113-16.222-16.835-16.222-29.056 0-18.839 15.262-34.114 34.097-34.133h0.002zM238.933 516.267h136.533v-273.067h-136.533zM580.267 516.267v-273.067h-136.533v273.067zM785.067 243.2h-136.533v273.067h136.533zM512 783.403l323.157-198.869h-646.315zM1024 72.533c0-18.851-15.282-34.133-34.133-34.133v0h-955.733c-18.851 0-34.133 15.282-34.133 34.133s15.282 34.133 34.133 34.133h955.733c18.851 0 34.133-15.282 34.133-34.133v0z" />
<glyph unicode="&#xe91a;" glyph-name="wifi" data-tags="wifi-high" d="M560 144c0-26.51-21.49-48-48-48s-48 21.49-48 48c0 26.51 21.49 48 48 48v0c26.51 0 48-21.49 48-48v0zM948.32 612c-117.734 97.139-270.147 156.052-436.32 156.052s-318.586-58.913-437.493-156.991l1.173 0.94c-7.164-5.916-11.695-14.799-11.695-24.74 0-17.681 14.334-32.015 32.015-32.015 7.74 0 14.839 2.747 20.374 7.319l-0.054-0.043c106.773 88.077 244.989 141.493 395.68 141.493s288.906-53.415 396.744-142.345l-1.064 0.852c5.481-4.528 12.58-7.275 20.32-7.275 17.681 0 32.015 14.334 32.015 32.015 0 9.941-4.531 18.824-11.641 24.697l-0.054 0.043zM820 468.92c-83.738 66.761-191.096 107.122-307.88 107.122s-224.141-40.361-308.884-107.895l1.004 0.773c-7.414-5.914-12.123-14.947-12.123-25.080 0-17.675 14.328-32.003 32.003-32.003 7.542 0 14.474 2.609 19.944 6.973l-0.064-0.050c72.927 58.131 166.42 93.273 268.12 93.273s195.193-35.143 268.996-93.947l-0.876 0.674c5.405-4.316 12.338-6.925 19.881-6.925 10.133 0 19.166 4.71 25.030 12.060l0.050 0.065c4.316 5.405 6.925 12.338 6.925 19.881 0 10.133-4.71 19.166-12.060 25.030l-0.065 0.050zM690.96 325.88c-49.497 36.322-111.622 58.123-178.84 58.123s-129.343-21.801-179.691-58.718l0.851 0.595c-8.022-5.889-13.171-15.283-13.171-25.88 0-17.679 14.332-32.011 32.011-32.011 7.082 0 13.627 2.3 18.929 6.194l-0.089-0.062c39.063 28.684 88.101 45.902 141.16 45.902s102.097-17.218 141.83-46.372l-0.67 0.469c5.213-3.831 11.758-6.131 18.84-6.131 17.679 0 32.011 14.332 32.011 32.011 0 10.597-5.149 19.991-13.082 25.818l-0.089 0.062z" />
<glyph unicode="&#xe91b;" glyph-name="clock" data-tags="clock" d="M512 864c-229.75 0-416-186.25-416-416s186.25-416 416-416c229.75 0 416 186.25 416 416v0c-0.25 229.65-186.35 415.75-415.976 416h-0.024zM512 96c-194.404 0-352 157.596-352 352s157.596 352 352 352c194.404 0 352-157.596 352-352v0c-0.228-194.313-157.687-351.772-351.978-352h-0.022zM768 448c0-17.673-14.327-32-32-32v0h-224c-17.673 0-32 14.327-32 32v0 224c0 17.673 14.327 32 32 32s32-14.327 32-32v0-192h192c17.673 0 32-14.327 32-32v0z" />
<glyph unicode="&#xe91c;" glyph-name="pin" data-tags="map-pin" d="M512 704c-88.366 0-160-71.634-160-160s71.634-160 160-160c88.366 0 160 71.634 160 160v0c0 88.366-71.634 160-160 160v0zM512 448c-53.019 0-96 42.981-96 96s42.981 96 96 96c53.019 0 96-42.981 96-96v0c0-53.019-42.981-96-96-96v0zM512 896c-194.313-0.228-351.772-157.687-352-351.978v-0.022c0-125.6 58.040-258.72 168-385 49.439-56.891 103.776-107.23 163.073-151.265l2.727-1.935c5.116-3.623 11.485-5.791 18.36-5.791s13.244 2.168 18.46 5.858l-0.1-0.067c61.893 45.975 116.125 96.311 164.414 151.945l1.066 1.255c109.8 126.28 168 259.4 168 385-0.228 194.313-157.687 351.772-351.978 352h-0.022zM512 72c-66.12 52-288 243-288 472 0 159.058 128.942 288 288 288s288-128.942 288-288v0c0-228.92-221.88-420-288-472z" />
<glyph unicode="&#xe91d;" glyph-name="eye-slash-fill" data-tags="eye-slash-fill" d="M386.72 728.52c-2.594 2.834-4.183 6.625-4.183 10.787 0 7.597 5.295 13.957 12.395 15.592l0.108 0.021c34.841 8.314 74.844 13.081 115.96 13.081 0.352 0 0.703 0 1.055-0.001h-0.055c139.52 0 266.28-53.040 366.64-153.4 75.32-75.32 109.2-150.48 110.6-153.64 1.743-3.824 2.76-8.293 2.76-13s-1.016-9.176-2.841-13.201l0.082 0.201c-1.4-3.16-35.28-78.28-110.6-153.6q-17.12-17.040-35.16-32.28c-2.772-2.365-6.396-3.803-10.356-3.803-4.689 0-8.907 2.017-11.833 5.23l-0.011 0.013zM855.68 117.52c5.315-5.698 8.578-13.37 8.578-21.804 0-17.673-14.327-32-32-32-9.509 0-18.049 4.147-23.91 10.732l-0.028 0.032-88.32 97c-60.56-27.474-131.321-43.485-205.822-43.485-0.766 0-1.532 0.002-2.297 0.005h0.118c-139.52 0-266.28 53.040-366.64 153.36-75.32 75.32-109.36 150.44-110.6 153.6-1.743 3.824-2.76 8.293-2.76 13s1.016 9.176 2.841 13.201l-0.082-0.201c1.24 3.040 35.28 78.32 110.6 153.64 29.404 29.535 62.179 55.671 97.713 77.793l2.287 1.327-77.040 84.76c-5.315 5.698-8.578 13.37-8.578 21.804 0 17.673 14.327 32 32 32 9.509 0 18.049-4.147 23.91-10.732l0.028-0.032zM593.72 310.52l-210.76 232c-19.22-26.085-30.761-58.857-30.761-94.325 0-88.366 71.634-160 160-160 30.075 0 58.211 8.298 82.245 22.729l-0.724-0.403z" />
<glyph unicode="&#xe91e;" glyph-name="eye-fill" data-tags="eye-fill" d="M989.24 460.96c-1.4 3.16-35.28 78.32-110.6 153.64-100.36 100.36-227.12 153.4-366.64 153.4s-266.28-53.040-366.64-153.4c-75.32-75.32-109.36-150.6-110.6-153.64-1.743-3.824-2.76-8.293-2.76-13s1.016-9.176 2.841-13.201l-0.082 0.201c1.4-3.16 35.28-78.28 110.6-153.6 100.36-100.32 227.12-153.36 366.64-153.36s266.28 53.040 366.64 153.36c75.32 75.32 109.2 150.44 110.6 153.6 1.743 3.824 2.76 8.293 2.76 13s-1.016 9.176-2.841 13.201l0.082-0.201zM512 288c-88.366 0-160 71.634-160 160s71.634 160 160 160c88.366 0 160-71.634 160-160v0c0-88.366-71.634-160-160-160v0z" />
<glyph unicode="&#xe91f;" glyph-name="caret-up-down" data-tags="caret-up-down" d="M726.64 278.64c5.798-5.792 9.385-13.797 9.385-22.64s-3.587-16.848-9.385-22.64v0l-192-192c-5.792-5.798-13.797-9.385-22.64-9.385s-16.848 3.587-22.64 9.385v0l-192 192c-5.794 5.794-9.378 13.799-9.378 22.64 0 17.683 14.335 32.018 32.018 32.018 8.841 0 16.846-3.584 22.64-9.378l169.36-169.4 169.36 169.4c5.792 5.798 13.797 9.385 22.64 9.385s16.848-3.587 22.64-9.385v0zM342.64 617.36l169.36 169.4 169.36-169.4c5.794-5.794 13.799-9.378 22.64-9.378 17.683 0 32.018 14.335 32.018 32.018 0 8.841-3.584 16.846-9.378 22.64l-192 192c-5.792 5.798-13.797 9.385-22.64 9.385s-16.848-3.587-22.64-9.385v0l-192-192c-5.794-5.794-9.378-13.799-9.378-22.64 0-17.683 14.335-32.018 32.018-32.018 8.841 0 16.846 3.584 22.64 9.378v0z" />
<glyph unicode="&#xe920;" glyph-name="check-circle-fill" data-tags="check-circle-fill" d="M512 864c-229.75 0-416-186.25-416-416s186.25-416 416-416c229.75 0 416 186.25 416 416v0c-0.25 229.65-186.35 415.75-415.976 416h-0.024zM694.64 521.36l-224-224c-5.792-5.798-13.797-9.385-22.64-9.385s-16.848 3.587-22.64 9.385v0l-96 96c-5.794 5.794-9.378 13.799-9.378 22.64 0 17.683 14.335 32.018 32.018 32.018 8.841 0 16.846-3.584 22.64-9.378l73.36-73.4 201.36 201.4c5.794 5.794 13.799 9.378 22.64 9.378 17.683 0 32.018-14.335 32.018-32.018 0-8.841-3.584-16.846-9.378-22.64v0z" />
</font>
</defs>
</svg>
